KGF Chapter 1 Full Movie Download In Hindi 720p PreDVD x264 Quality Encoded In x264 With HQ Cleaned Audio.

KGF Chapter 1 Hindi Dubbed 2018 Full Movie Download

Details Of Full Length Free Videos

Title: KGF Chapter 1 (2018) Hindi
Genres: Action | Drama
Country: India
Language: Hindi
Release Date: 20 December 2018
Quality: 720p PreDVD x264
Audio: HQ Cleaned Audio
Format: MKV
Size: 814-MB

IMDb

Storyline

KGF Chapter 1 Hindi Movie Free Download Full Length 720p A period drama narrates the 1700-year-old history of oppressed waging wars against their oppressors. Set in the early 80s, KGF – the first chapter centers the protagonist who leads a battle against oppressors KGF Full Movie In Hindi 720p.

The movie datesback to 1951.Here two incidents take place; KGF Hindi Dubbed Download One birth of the hero and other in the Kolar Gold Fields (K.G.F) they get gold. The hero is brought up in poverty. When he is very young itself he goes to Mumbai to become a mafia don. His mother’s wish was to see her son rich and powerful. KGF 2018 Full Movie Free Download After being in Mumbai for some time he returns back. Will he be able to become a Don? Will he set his people free from the age old slavery? Forms the plot of the movie.

About KGF Chapter 1 Hindi Movie:

K.G.F: Chapter 1 is an Indian Kannada-language historical action film film set in the Kolar Gold Fields. KGF Full Movie In Hindi Dubbed It was written and directed by Prashanth Neel and produced by Vijay Kiragandur under the banner Hombale films. It is the first installment in the two-part series, followed by K.G.F: Chapter 2. The film stars Yash in the lead role. Production on the film was completed on 15 August 2018. K.G.F: Chapter 1. The film was released on 21 December 2018. It was dubbed into Hindi, Tamil, Telugu, and Malayalam. In the USA and Canada, the film premiered on 20 December 2018.

KGF Chapter 1 Full Movie Cast

  • Yash as Raja Krishnappa Bairya “Rocky”
  • Srinidhi Shetty as Reena
  • Achyuth Kumar
  • Malavika Avinash as Deepa Hegde
  • Anant Nag
  • Dinesh Mangalore as Shetty
  • Vasishta N. Simha
  • Harish Roy
  • Ayyappa P. Sharma
  • B. Suresh
  • Srinivasa Murthy
  • Ramachandra Raju as Garuda
  • Archana Jois
  • Roopa Rayappa
  • Anmol Vijay as young “Rocky”
  • T. S. Nagabharana
  • Harish Roy
  • Ninasam Ashwath
  • B. S. Avinash as Suryavardhan
  • Ram
  • Lucky
  • Vinay
  • Puneeth Rudranag

Production

As of 25 June 2017, the project was 50 percent complete and production had restarted after sets were rebuilt following their destruction by heavy rains. The second schedule started in Mysore. The film has so far been shot in Kolar, Bengaluru, Mysuru and Bagalkot. “In our upcoming schedules, we plan on visiting Kolkata, Mumbai and Ladakh as well, apart from more shoots in Mysuru and Bengaluru,” said Karthik.

KGF will be released in five languages. It is a complete period drama and is set in the 70s and early 80s. Yash plays the role of Rocky, a slick and a suave person of the 70s era. Apart from Yash and Srinidhi, some of the Kannada actors include Achyuth Kumar, Vasishta N Simha and B Suresha. Ramya Krishna and Nasser are expected to join in later schedules. A technical team, which includes cinematographer Bhuvan Gowda, music director Ravi Basrur and art director Shivakumar, have worked towards creating the ambience and look of the era. The teaser of KGF was released on the Yash birthday (8 January 2018). The trailer was released on 9 November 2018.

MKV File Details

MKV File Details

General
Unique ID : 172833739651728015732102002716852782235 (0x8206914507C2E359D995BF5D7572849B)
Complete name : K.G.F Chapter 1 (2018) Hindi HQ PreDVD – 720p – x264 – HQ Cleaned Aud – 800MB
Format : Matroska
Format version : Version 4 / Version 2
File size : 814 MiB
Duration : 2 h 30 min
Overall bit rate : 756 kb/s
Encoded date : UTC 2018-12-22 17:35:31
Writing application : mkvmerge v26.0.0 (‘In The Game’) 64-bit
Writing library : libebml v1.3.6 + libmatroska v1.4.9

Video
ID : 1
Format : AVC
Format/Info : Advanced Video Codec
Format profile : [email protected]
Format settings : 2 Ref Frames
Format settings, CABAC : No
Format settings, RefFrames : 2 frames
Format settings, GOP : M=1, N=25
Codec ID : V_MPEG4/ISO/AVC
Duration : 2 h 30 min
Bit rate : 556 kb/s
Width : 1 280 pixels
Height : 544 pixels
Display aspect ratio : 2.35:1
Frame rate mode : Constant
Frame rate : 23.976 FPS
Color space : YUV
Chroma subsampling : 4:2:0
Bit depth : 8 bits
Scan type : Progressive
Bits/(Pixel*Frame) : 0.033
Stream size : 599 MiB (74%)
Language : Hindi
Default : Yes
Forced : No

Audio
ID : 2
Format : AAC
Format/Info : Advanced Audio Codec
Format profile : LC
Codec ID : A_AAC-2
Duration : 2 h 30 min
Bit rate : 197 kb/s
Channel(s) : 2 channels
Channel positions : Front: L R
Sampling rate : 44.1 kHz
Frame rate : 43.066 FPS (1024 SPF)
Compression mode : Lossy
Stream size : 212 MiB (26%)
Language : Hindi
Default : Yes
Forced : No

Images, Screenshots Of Full Episodes

Some Images Of KGF Chapter 1 Hindi Dubbed Full Movie 720p PreDVD x264

KGF Chapter 1 Hindi Dubbed 2018 Full Movie Download

KGF Chapter 1 Hindi Dubbed 2018 Full Movie Download

KGF Chapter 1 Hindi Dubbed 2018 Full Movie Download

KGF Chapter 1 Hindi Dubbed 2018 Full Movie Download

KGF Chapter 1 Hindi Dubbed 2018 Full Movie Download

KGF Chapter 1 Hindi Dubbed 2018 Full Movie Download

KGF Chapter 1 Hindi Dubbed 2018 Full Movie Download

Watch The Full HD 720p, 1080p Movie Trailers

Watch KGF Chapter 1 Hindi Movie HD Trailer

Direct Download Links Of KGF Chapter 1 Full Movie In Hindi 720p PreDVD Given Below

Free Download Direct Links HD

Direct Links For Premium Users

If you are the member of this site then enter your login details and Enjoy Direct Links

Leave a Reply

Your email address will not be published. Required fields are marked *

Check Also

The Girl in the Spiders Web (2018) 720p HDRip x264 [Hindi (Line) + English] ESubs – 1 GB

The Girl In The Spider’s Web Hindi Dubbed Download Full Movie Free 720p HDRip Qualit…