Bad Times At The El Royale Full Movie Download In Hindi + English Dual Audio 720p BluRay HD Quality Encoded In x264 With English Subtitles.

Bad Times At The El Royale Full Movie Direct Download In Hindi, English Dual Audio 720p HD BluRay

Details Of Full Length Free Videos

Title: Bad Times At The El Royale 2018 (Dual Audio)
Genres: Crime | Drama | Mystery | Thriller
Country: USA
Language: Hindi | English
Release Date: 12 October 2018
Quality: 720p BluRay x264
Subtitles: English
Format: MKV
Size: 905-MB

IMDb

Storyline

Bad Times At The El Royale Hindi Dubbed 720p BluRay HD Movie Direct Download With English Subtitles In 1969, an aging priest suffering from early onset dementia, a struggling African American female singer, a talkative salesman on vacation and an unfriendly young woman who may or may not be a hippie, arrive by chance on the same day at Lake Tahoe’s “El Royale”, a once glitzy but now rundown roadside motel lying on the very border between California and Nevada, and operated by a single troubled staff member who holds many dark secrets. Bad Times At The El Royale Download In Hindi Throughout the day, it becomes increasingly clear that almost no one there is exactly who they seem, but things really go from bad to worse in the evening when heavy rain hits and someone much worse than those inside arrives to find “a friend” and bring hell to all those unlucky enough to be there at the time.

About

Bad Times At The El Royale English Subtitles Download is a 2018 American neo-noir thriller film written, produced and directed by Drew Goddard. The film stars Jeff Bridges, Cynthia Erivo, Dakota Johnson, Jon Hamm, Cailee Spaeny, Lewis Pullman, Nick Offerman and Chris Hemsworth. Set in 1969, the plot follows seven strangers each hiding dark secrets, who come to a head one night in a shady hotel on the California-Nevada border Bad Times At The El Royale Full Movie Download In Hindi.

Bad Times at the El Royale premiered at Fantastic Fest on September 27, 2018, and was theatrically released in the United States on October 12, 2018. Bad Times At The El Royale Subtitles English Download The film grossed over $31 million worldwide, and received generally positive reviews from critics, with praise for its acting and Goddard’s screenplay and direction, although some reviewers criticized the 141-minute runtime and pacing.

Bad Times At The El Royale Full Movie Main Cast

  • Jeff Bridges as Donald “Doc” O’Kelly / Daniel Flynn, a robber masquerading as a priest.
  • Cynthia Erivo as Darlene Sweet, a struggling soul singer.
  • Dakota Johnson as Emily Summerspring, a woman trying to save her sister from Billy’s cult.
    Hannah Zirke as young Emily
  • Jon Hamm as Dwight Broadbeck / Seymour ‘Laramie’ Sullivan, an undercover FBI agent posing as a home supplies salesman.
  • Cailee Spaeny as Rose Summerspring, Emily’s sister and Billy Lee’s accomplice.
    Charlotte Mosby as young Rose
  • Lewis Pullman as Miles Miller, a former sniper in the Vietnam War, and is now the concierge and sole employee left at the El Royale.
    Austin Abell as young Miles
  • Chris Hemsworth as Billy Lee, a charismatic cult leader
  • Nick Offerman as Felix O’Kelly, Doc’s brother and criminal partner.
  • Xavier Dolan as Buddy Sunday, a music producer who fires Darlene due to budget cuts.
  • Shea Whigham as Dr. Woodbury Laurence, a prison doctor who diagnoses O’Kelly.
  • Mark O’Brien as Larsen Rogers, Doc and Felix’s accomplice.
  • Charles Halford as Sammy Wilds, Doc’s prison cellmate.
  • Jim O’Heir as Milton Wyrick, the presenter at Darlene’s show in Reno.
  • Manny Jacinto as Waring “Wade” Espiritu, a member of Billy Lee’s cult.
  • Alvina August as Vesta Shears, a singer who replaces Darlene.
  • Gerry Nairn as Paul Kraemer, a reporter.
  • William B. Davis as Judge Gordon Hoffman, who sentences Doc.

MKV File Details

MKV File Details

Format : Matroska  Bad Times At The El Royale Dual Audio 480p
Format version : Version 4 / Version 2
File size : 906 MiB
Duration : 2 h 21 min
Overall bit rate : 894 kb/s
Movie name : Bad Times At The El Royale 2018

Video
Format : AVC
Codec ID : V_MPEG4/ISO/AVC
Duration : 2 h 21 min
Bit rate : 699 kb/s
Width : 1 280 pixels
Height : 528 pixels
Display aspect ratio : 2.40:1
Frame rate mode : Constant
Frame rate : 23.976 (24000/1001) FPS
Color space : YUV
Chroma subsampling : 4:2:0
Bit depth : 8 bits
Scan type : Progressive
Bits/(Pixel*Frame) : 0.043
Stream size : 708 MiB (78%)
Writing library : x264 core 155 r2901 7d0ff22

Audio #1 Bad Times At The El Royale 720p Download
Format : AAC
Duration : 2 h 21 min
Bit rate : 96.0 kb/s
Channel(s) : 2 channels
Channel positions : Front: L R
Sampling rate : 48.0 kHz
Frame rate : 46.875 FPS (1024 SPF)
Compression mode : Lossy
Delay relative to video : -21 ms
Stream size : 97.4 MiB (11%)
Language : Hindi

Audio #2
Format : AAC
Duration : 2 h 21 min
Bit rate : 96.0 kb/s
Channel(s) : 2 channels
Channel positions : Front: L R
Sampling rate : 48.0 kHz
Frame rate : 46.875 FPS (1024 SPF)
Compression mode : Lossy
Delay relative to video : -21 ms
Stream size : 97.3 MiB (11%)
Language : English

Images, Screenshots Of Full Episodes

Some Images Of Bad Times At The El Royale 2018 Dual Audio [Hindi + English] 720p HD BluRay + ESubs

Bad Times At The El Royale Full Movie Direct Download In Hindi, English Dual Audio 720p HD BluRay

Bad Times At The El Royale Full Movie Direct Download In Hindi, English Dual Audio 720p HD BluRay

Bad Times At The El Royale Full Movie Direct Download In Hindi, English Dual Audio 720p HD BluRay

Bad Times At The El Royale Full Movie Direct Download In Hindi, English Dual Audio 720p HD BluRay

Bad Times At The El Royale Full Movie Direct Download In Hindi, English Dual Audio 720p HD BluRay

Watch The Full HD 720p, 1080p Movie Trailers

Watch Bad Times At The El Royale Full HD Movie Trailer

Direct Download Links Of Bad Times At The El Royale Full Movie Dubbed In Hindi + English 720p BluRay Given Below

Free Download Direct Links HD

Direct Links For Premium Users

If you are the member of this site then enter your login details and Enjoy Direct Links

Leave a Reply

Your email address will not be published. Required fields are marked *

Check Also

Budhia Singh: Born to Run (2016) Hindi 720p WEB-DL x264 AC3 5.1 ESubs – 1.6 GB

[2016] Budhia Singh Born To Run Movie Download In 720p HD WEB-DL Quality Encoded In x264 W…